메뉴
 
작성일 : 17-07-07 17:28
콩: 스컬 아일랜드 Kong Skull Island 2017 1080p 3D BluRay Half-SBS x264 AAC 5.1 - Hon3y
글쓴이 : 익명
조회 : 77  
다운로드 : 콩: 스컬 아일랜드 Kong Skull Island 2017 1080p 3D BluRay Half-SBS x264 AAC 5.1 - Hon3y.torrent (17.9k)
콩: 스컬 아일랜드 Kong Skull Island 2017 1080p 3D BluRay Half-SBS x264 AAC 5 토렌트 torrent
Kong Skull Island 2017 1080p 3D BluRay Half-SBS x264 AAC 5.1 - Hon3y 

Source BD @ FGT. Many Thanks 


Format : Matroska 
Format version : Version 4 / Version 2 
File size : 2.76 GiB 
Duration : 1 h 58 min 
Overall bit rate : 3 336 kb/s 
Movie name : Kong Skull Island 2017 3D- [email protected]<script data-cfhash='f9e31' type="text/javascript">
Format settings, CABAC : Yes 
Format settings, ReFrames : 5 frames 
Codec ID : V_MPEG4/ISO/AVC 
Duration : 1 h 58 min 
Bit rate : 3 000 kb/s 
Width : 1 920 pixels 
Height : 800 pixels 
Display aspect ratio : 2.40:1 
Frame rate mode : Constant 
Frame rate : 23.976 (24000/1001) FPS 


Audio 
ID : 2 
Format : AAC 
Format/Info : Advanced Audio Codec 
Format profile : LC 
Codec ID : A_AAC 
Duration : 1 h 58 min 
Bit rate : 320 kb/s 
Channel(s) : 6 channels 
Channel positions : Front: L C R, Side: L R, LFE 
Sampling rate : 48.0 kHz 


Text #1 
ID : 3 
Format : UTF-8 
Codec ID : S_TEXT/UTF8 
Codec ID/Info : UTF-8 Plain Text 
Duration : 1 h 57 min 
Bit rate : 44 b/s 
Count of elements : 1250 
Stream size : 38.8 KiB (0%) 
Language : English 
Default : Yes 
Forced : No 

Text #2 
ID : 4 
Format : PGS 
Muxing mode : zlib 
Codec ID : S_HDMV/PGS 
Codec ID/Info : Picture based subtitle format used on BDs/HD-DVDs 
Duration : 1 h 58 min 
Bit rate : 14.0 kb/s 
Count of elements : 3060 
Stream size : 11.8 MiB (0%) 
Language : English 
Default : No 
Forced : No 


     
170705 170706 170707 콩: 스컬 아일랜드 Kong Skull Island 2017 1080p 3D BluRay Half-SBS x264 AAC 5 magnet, 다운로드, 바로보기

 

Total. 46,938
번호 제   목 글쓴이 날짜
46938 [3D] 쿰바: 반쪽무늬 얼룩말의 대모험 Khumba (2013) [3D] [HSBS] 익명 07-21
46937 콩: 스컬 아일랜드 Kong Skull Island 2017 1080p 3D BluRay Half-SBS x264 AAC 5.1 - Hon3y 익명 07-07
46936 [3D] 콩: 스컬 아일랜드 Kong.Skull.Island.2017.1080p.3D.BluRay.x264.DTS-HD.MA.7.1-FGT 익명 06-28
46935 콩; 스컬 아일랜드 Kong.Skull.Island.2017.3D.1080p.BRRip.Half-SBS.x264.AAC-Ozlem 익명 06-25
46934 콩: 스컬 아일랜드 [3D] Kong.Skull.Island.2017.3D.1080p.BluRay.x264-SPRiNTER 익명 06-24
46933 다이노소어 어드벤처 3D Walking.with.Dinosaurs.2013.1080p.3D.BluRay.Half-SBS.x264.DTS-HD.MA.5.1-FGT 익명 06-20
46932 다이노소어 어드벤처 3D Walking.with.Dinosaurs.2013.1080p.3D.BluRay.Half-OU.x264.DTS-HD.MA.5.1-FGT 익명 06-20
46931 미녀와 야수 3D 듀얼 사운드 Beauty and the Beast. 2017 BluRay 3D Half SBS H264 2AUDIO TrueHD.7.1 1080p -YUKINOMATI 익명 06-18
46930 미녀와 야수 Beauty and the Beast 2017 1080p 3D BluRay Half-SBS x264 AAC 5.1- Hon3y 익명 06-16
46929 트리플 엑스 리턴즈 xXx.Return.of.Xander.Cage.2017.3D.1080p.BRRiP.6CH.ShAaNiG 익명 06-15
46928 서유복요편 Journey.to.the.West.The.Demons.Strike.Back.2017.1080p.3D.BluRay.Half-SBS.x264.DTS-WiKi 익명 06-15
46927 그레이트 월 The.Great.Wall.2016.1080p.3D.BluRay.Half-SBS.x264.TrueHD.7.1.Atmos-FGT 익명 06-15
46926 그레이트 월 The.Great.Wall.2016.3D.1080p.BluRay.x264-PSYCHD 익명 06-15
46925 그레이트 월 The Great Wall / 2016 / [MULTI] / Blu-Ray 3D CEE 1080p AVC DD7.1 익명 06-15
46924 포인트 브레이크 Point Break 2015 1080p 3D BluRay Half-OU x264 DTS-JYK 익명 06-15
46923 로그 원: 스타워즈 스토리 3D(좌우) Rogue.One.2016.3D.1080p.BRRiP.6CH.ShAaNiG 익명 06-15
46922 로그 원: 스타워즈 스토리 Rogue One 2016 1080p 3D BluRay Half-OU x264 DTS-JYK 익명 06-15
46921 로그 원: 스타워즈 스토리 Rogue.One.2016.1080p.3D.BluRay.Half-SBS.x264.DTS-HD.MA.7.1-FGT 익명 06-15
46920 로그 원: 스타워즈 스토리 Rogue.One.2016.1080p.3D.BluRay.Half-OU.x264.DTS-HD.MA.7.1-FGT 익명 06-15
46919 다이노소어 어드벤처 3D Walking.With.Dinosaurs.3D.2013.1080p.BluRay.Half-SBS.DTS.x264-YUKINOMATI 익명 06-15
46918 언더월드: 블러드 워 Underworld.Blood.Wars.2016.1080p.3D.BluRay.Half-OU.x264.DTS-JYK 익명 06-15
46917 언더월드: 블러드 워 Underworld.Blood.Wars.2016.1080p.3D.BluRay.Half-OU.x264.DTS-JYK 익명 06-15
46916 레지던트 이블: 파멸의 날 Resident.Evil.The.Final.Chapter.2016.1080p.3D.BluRay.Half-OU.x264.DTS-JYK 익명 06-15
46915 레지던트 이블: 파멸의 날 Resident.Evil.The.Final.Chapter.2016.1080p.3D.BluRay.Half-SBS.x264.DTS-HD.MA.7.1-FGT 익명 06-15
46914 레지던트 이블: 파멸의 날 Resident.Evil.The.Final.Chapter.2016.1080p.3D.BluRay.Half-OU.x264.DTS-HD.MA.7.1-FGT 익명 06-15
 1  2  3  4  5  6  7  8  9  10    
 
torrentdream.com | fulcrum-studios.com | tnori.kr | yukatagirl.com | hlive.co.kr | navidisk.com | 0service.com | donghaebada.com | 8xom.com
Copyright ⓒ http://torrent777.kr. All rights reserved.