메뉴
 
작성일 : 17-09-13 19:28
[한글] 쉰들러 리스트 Schindlers List 1993 1080p Bluray x265 10Bit AAC 5.1 - GetSchwifty
글쓴이 : 익명
조회 : 5  
다운로드 : [한글] 쉰들러 리스트 Schindlers List 1993 1080p Bluray x265 10Bit AAC 5.1 - GetSchwifty.torrent (24.1k)
[한글] 쉰들러 리스트 Schindlers List 1993 1080p Bluray x265 10Bit AAC 5 토렌트 torrent

Source File:

Schindlers List 1993 1080p FRA BluRay AVC DTS-HD MA 5.1 - NOGROUP 



Media Information:


Code:

General 
Complete name : Schindlers List 1993 1080p Bluray x265 10Bit AAC 5.1 - GetSchwifty.mkv 
Format : Matroska 
Format version : Version 4 / Version 2 
File size : 6.91 GiB 
Duration : 3 h 15 min 
Overall bit rate : 5 071 kb/s 
Movie name : Schindlers List 
Encoded date : UTC 2017-09-12 02:44:04 

Video 
ID : 1 
Format : HEVC 
Format/Info : High Efficiency Video Coding 
Format profile : Main [email protected]@Main 
Codec ID : V_MPEGH/ISO/HEVC 
Duration : 3 h 15 min 
Bit rate : 4 631 kb/s 
Width : 1 920 pixels 
Height : 1 040 pixels 
Display aspect ratio : 1.85:1 
Frame rate mode : Constant 
Frame rate : 23.976 (24000/1001) FPS 
Color space : YUV 
Chroma subsampling : 4:2:0 
Bit depth : 10 bits 
Bits/(Pixel*Frame) : 0.097 
Stream size : 6.31 GiB (91%) 

Audio 
ID : 2 
Format : AAC 
Format/Info : Advanced Audio Codec 
Format profile : LC 
Codec ID : A_AAC 
Duration : 3 h 15 min 
Bit rate : 369 kb/s 
Channel(s) : 6 channels 
Channel positions : Front: L C R, Side: L R, LFE 
Sampling rate : 48.0 kHz 
Frame rate : 46.875 FPS (1024 SPF) 
Compression mode : Lossy 
Delay relative to video : 9 ms 
Stream size : 515 MiB (7%) 
Title : English AAC VBR 5.1 
Language : English 
Default : Yes 
Forced : No 

“왜 나는 더 많은 유태인들을 구해내지 못하였는가?”

1939년 9월 독일군의 폴란드 점령과 함께 오스카 쉰들러는 폴란드의 크레코우로 이주해온다. 기회주의자에 호색한인 쉰들러는 전쟁중 나치와 결탁해 임금을 줄 필요가 없는 유대인을 공장의 인력으로 이용한다. 이때 만난 유대인 회계사 아이작 스턴은 쉰들러의 내면에 숨어 있던 양심을 일깨워준다. 유대인들에 대한 박해가 심해지자 쉰들러는 그들을 강제수용소에서 구해내기로 결심한다. 수용소 장교에게 뇌물을 주고 유대인들을 자신의 고향으로 옮길 계획을 세운 쉰들러는 스턴과 함께 구출할 유대인 명단을 작성한다. 
170911 170912 170913 [한글] 쉰들러 리스트 Schindlers List 1993 1080p Bluray x265 10Bit AAC 5 magnet, 다운로드, torrent

 

Total. 12,378
번호 제   목 글쓴이 날짜
12378 [한글] 사랑보다 아름다운 유혹 Cruel.Intentions.1999.720p.BluRay.x264.YIFY 익명 09-22
12377 [한글] 스티그마타 Stigmata.1999.1080p.BluRay.x264.YIFY 익명 09-22
12376 [한글] 일렉션 Election.1999.1080p.BluRay.x264-CiNEFiLE 익명 09-22
12375 [한글] 퓨어 Till.Det.Som.Ar.Vackert.2010.eng.dk.se.no.fi.AC3.DVDRip.XviD-JanOve 익명 09-22
12374 [한글] 버스데이 걸 (니콜 키드먼) Birthday.Girl.2001.1080p.WEBRip.DD5.1.x264-NTb 익명 09-22
12373 [한글] 히트맨 Hitman.2007.UNRATED.1080p.BluRay.H264.AAC-RARBG 익명 09-22
12372 [한글] 나이트 무브 Night.Moves.1975.1080p.BluRay.HEVC.AAC-SARTRE 익명 09-22
12371 [한글] 장백지주연 성원.Fly.Me.to.Polaris.1999.720p.HDTV.x264-NGB 익명 09-22
12370 [한글] 올 더 킹즈 맨 All.The.Kings.Men.2006.720+1080p.BluRay.H264.AAC-RARBG 익명 09-22
12369 [한글] 엘리트 특공대 The.Inglorious.Bastards.1978.1080p.BluRay.x264-Japhson 익명 09-22
12368 [한글] 바이러스 Virus.1999.720p+1080p.BluRay.H264.AAC-RARBG 익명 09-22
12367 [한글] 블레어 윗치 The.Blair.Witch.Project.1996.720p.BrRip.x264.YIFY 익명 09-22
12366 [무] 작은 공포 Little.Terrors.2014.720p.BluRay.x264-x0r 익명 09-22
12365 [영] 에이트 크레이지 나이트 Eight.Crazy.Nights.2002.720p.BluRay.x264-PSYCHD 익명 09-22
12364 [한글] 뉴욕 스토리 New.York.Stories.1989.720p.BluRay.x264-x0r 익명 09-22
12363 [한글] 아이언 마스크 The.Man.In.The.Iron.Mask.1998.1080p.BluRay.H264.AAC-RARBG 익명 09-22
12362 [한글] 뱀파이어 아카데미 Vampire.Academy.2014.1080p.BluRay.DTS-HD.MA.5.1.x264-PublicHD 익명 09-22
12361 [한글] 오드 토머스 Odd.Thomas.2013.Blu.Ray.1080p.CINEMANIA 익명 09-22
12360 [한글] 와호장룡 Crouching Tiger, Hidden Dragon 2000 15th Anniv (1080p Bluray x265 HEVC 10bit AAC 7.1 Chinese Tigole) 익명 09-22
12359 [한글] 풀 몬티 The.Full.Monty.1997.720p+1080p.BluRay.H264.AAC-RARBG 익명 09-21
12358 [한글] 드리쉬얌 Drishyam.2013.Malayalam.BRRi.720p.x264.AC3-[Team.Jaffa] 익명 09-21
12357 [한글] 레트로액티브 Retroactive.1997.720p+1080p.BluRay.x264.VPPV 익명 09-21
12356 [한글] 패밀리 유나이티드 Family.United.2013.1080p.BRRip.h264.AAC-RARBG 익명 09-21
12355 [한글] 폴리스 스토리 Police Story 1985 (1080p Bluray x265 HEVC 10bit AAC 5.1 Chinese Tigole) [UTR] 익명 09-21
12354 [한글] 거미 여인의 키스 Kiss.Of.The.Spider.Woman.1985.1080p.BluRay.x264-Japhson 익명 09-21
 1  2  3  4  5  6  7  8  9  10    
 
torrentdream.com | fulcrum-studios.com | tnori.kr | yukatagirl.com | hlive.co.kr | navidisk.com | 0service.com | donghaebada.com | 8xom.com
Copyright ⓒ http://torrent777.kr. All rights reserved.